Самые активные релизы за неделю
Музыка / Мультимедиа Сериалы
VA - Chill House Del Mar Vol. 3 (2017) MP3
  • VA - Chill House Del Mar Vol. 3 (2017) MP3
  • VA - A State Of Deep III [Compiled by ZeByte] (2018) FLAC
  • Сборник - Все песни о любви (2017) MP3
  • VA - Chill Out Smoothies (Relaxed   Calm Chill Out Sounds) (2016) MP3
  • Elliptical Chill (Vol.03, WEB) ( Chillout / 2018 )
  • Electrodance Latino 2018 (WEB) ( Dance / 2018 )
  • Synthatiger - Turbo Drive EP (2017) MP3
  • Elliptical Chill (Vol.04, WEB) ( Chillout / 2018 )
  • The Official UK Top 40 Singles Chart (13.07.2018) ( Pop / 2018 )
  • Seraphim Vulna - Future Links EP (2017) MP3
  • Planete Rap 2018 (Vol.2) (3 CD) ( Rap / 2018 )
  • Chuck Leavell - Chuck Gets Big ( Blues / 2018 )

:: Детали раздачи
Раздача является мультитрекерной — учтите, количество раздающих не будет совпадать с количеством участников на сайте (скачивание на клиентской стороне зависит от настроек µTorrent клиент программы, настройки -> Включить DHT, Обмен пирами и Поиск лок-х пиров).
Если висит надпись, пиры по нулям - не бойтесь, возможность скачать повторно раздачу - есть. Попробуйте, в случае отказа - прокоментируйте или нажмите на "Позвать скачавших".

Aurosonic - 2010 In The Mix [2010 / FLAC / 1100 (VBR)] [Trance]

Скачать Авторизуйтесь, чтобы скачать .torrent файл.
Теги / Метки trance, 2010
Описание
Aurosonic - 2010 In The Mix [2010 / FLAC / 1100 (VBR)] [Trance]
Артист : Aurosonic
Название : 2010 In The Mix
Жанр : Trance
Год выхода : 2010

О музыке :
Российский электронный проект Aurosonic
был основан 6 июня 2005 года, когда
2 человека с общими музыкальными предпочтениями решили объединить свои усилия и начать совместное творчество. После творческих поисков и музыкальных экспериментов Aurosonic нашел свое особенное звучание, гармонично сочетающее элементы клубных и прогрессивных направлений.
В 2006 году Aurosonic заявил о себе на мировой Trance сцене. Проект сразу же признали и поддержали такие топовые диджеи как Armin Van Buuren, Markus Schulz, Tiesto, Matt Darey, Paul Oakenfold, Andy Moor, Solarstone, Gareth Emery, Mike Shiver, Lange, Alex M.O.R.P.H., Aly and Fila, Roger Shah, Pedro Del Mar и многие другие. Со многими из них проект сейчас активно сотрудничает.
В 2008 году Aurosonic занял 13 место в TOP100DJ RUSSIA.
С осени 2009 года резиденты Global Clubbing production.
В июне 2008 года Aurosonic выпускает свой дебютный альбом Always Together, который можно найти на прилавках музыкальных магазинов страны и сейчас готовит свой 2-ой альбом, который выйдет в 2010 году в мировой релиз на лейбле Shah-Music, а также на эксклюзивных правах и в России !!!
Слушайте радишоу Etyology Sessions с AUROSONIC каждый 1ый и 3ий четверг месяца в 21-00 по моск.времени на Trance Radio #1 Afterhours FM.
А также русскую версию радиошоу Этиология еженедельно по пятницам в 21-00 на Радио Рекорд Златоуст и по воскресеньям он-лайн в 22-00 на радио Вирус FM (www.virusfm.ru)



Artist: Aurosonic
Title: 2010 In The Mix
Genre: Trance
Source: CD
Quality: Lossless (*.flac)
Release Date: 2010
Playing Time: 1:03:15



http://i31.tinypic.com/2cnw769.png


01. Matt Darey pres. Urban Astronauts feat. Kristy Thirsk - Black Flowers (Aurosonic Remix) [Nocturnal Global] (7:45)
02. Karanda feat. David Call - On Hold (Aurosonic Remix) [Coldharbour] (4:44)
03. Aurosonic FKN feat. Trine - You Me (Club Mix) [FSOE/Armada] (5:24)
04. Orjan Nilsen - So Long Radio (Aurosonic Remix) [SoundPiercing] (7:08)
05. Julian Wess Mike Carey feat. Johan Caderberg - Mountains (Aurosonic Club Mix) [Ask 4] (6:16)
06. FKN feat. Laurie - Alone (Aurosonic Remix) [Deep Blue] (5:47)
07. Aurosonic Morphing Shadows feat. Tiff Lacey - Always Together (Original Mix) [Shah Music Digital] (6:38)
08. Aly Fila feat. Josie - Listening (Aurosonic Remix) [FSOE/Armada] (6:32)
09. DJ Fell Aurosonic feat. Ale Haze - Feel (Abstract Vision Elite Electronic Dub Mix) [Liquid] (5:17)
10. Hodel Sunstate - Distant Motion (Aurosonic Remix) [ITWT] (7:40)


Eac Log
Exact Audio Copy V0.99 prebeta 5 from 4. May 2009


EAC extraction logfile from 29. January 2011, 19:46


- / Aurosonic - 2010 In The Mix


Used drive: ASUSDRW-1814BLT Adapter: 1ID: 0


Read mode : Secure
Utilize accurate stream : Yes
Defeat audio cache: Yes
Make use of C2 pointers : No


Read offset correction: 6
Overread into Lead-In and Lead-Out: No
Fill up missing offset samples with silence : Yes
Delete leading and trailing silent blocks : No
Null samples used in CRC calculations : Yes
Used interface: Native Win32 interface for Win NT 2000


Used output format: User Defined Encoder
Selected bitrate: 1024 kBit/s
Quality : High
Add ID3 tag : No
Command line compressor : C:Program FilesExact Audio CopyFLACFLAC.EXE
Additional command line options : -8 -V %s


TOC of the extracted CD


Track | Start|Length| Start sector | End sector
---------------------------------------------------------
1|0:00.00 |7:44.74 | 0|34873
2|7:44.74 |4:44.57 | 34874|56230
3| 12:29.56 |5:24.69 | 56231|80599
4| 17:54.50 |7:08.21 | 80600| 112720
5| 25:02.71 |6:16.49 |112721| 140969
6| 31:19.45 |5:47.06 |140970| 167000
7| 37:06.51 |6:38.50 |167001| 196900
8| 43:45.26 |6:32.64 |196901| 226364
9| 50:18.15 |5:17.28 |226365| 250167
10| 55:35.43 |7:40.31 |250168| 284698


Range status and errors


Selected range


Filename F:DownloadsAurosonic_-_2010_In_The_Mix_LosslessAurosonic - 2010 In The Mix.wav


Peak level 100.0 %
Range quality 100.0 %
Test CRC A45CF0C2
Copy CRC A45CF0C2
Copy OK


No errors occurred



AccurateRip summary

Track1not present in
Track2not present in
Track3not present in
Track4not present in
Track5not present in
Track6not present in
Track7not present in
Track8not present in
Track9not present in
Track 10not present in

None of the tracks are present in the AccurateRip


End of status report



Формат : FLAC
Битрэйт : 1100
vbr : Да
Похожие файлы
Загрузка / Обновление
Категория Музыка / Мультимедиа RSS лента
Добавлен (7 лет, 5 месяцев назад)
Раздающий Последний раз был здесь 7 лет, 5 месяцев назад. Следующая проверка через: 1 секунда.
Просмотров 128 раз (a)
Взят 3 раз (a)
Файлы 5, 504.27 MB (528 770 294 байт)
Раздал ViKa  (Искать торренты)
Участники
Скачивают (качают): 0 (1), Завершено: 0 (0)
Просматривают

« Yuriy From Russia Ange - Do You Want To Be Mine [2010 / MP3 / 320] [House] -†- ¿? -†- Watain - Discography [1998-2010 / MP3 / 320] [Black Metal] »

:: Список Комментариев
Нет комментариев.

 Нет комментариев

Поблагодарите нас, взамен, мы будем заливать еще больше раздач!


Счетчики
Яндекс.Метрика


Поделитесь в социальных сетях


Быстрый Поиск





Спасибо Вам
Мы благодарны этим людям в поддержке сайта:
Нет данных для показа
Попади и ты в этот блок, поставь оценку 5 и получи 300 MB к отдаче:
Войти на сайт сейчас.

Правообладателям
По всем вопросам сотрудничества, удаления авторских файлов "пачкой", просьба отписаться по адреcу:
[email protected]

Наши группы в VK, OK